<?xml version="1.0" standalone="no"?>
<!DOCTYPE svg PUBLIC "-//W3C//DTD SVG 1.1//EN" "http://www.w3.org/Graphics/SVG/1.1/DTD/svg11.dtd">
<svg xmlns="http://www.w3.org/2000/svg">
<metadata>Copyright (C) 2020 by original authors @ fontello.com</metadata>
<defs>
<font id="theme-icons-v2" horiz-adv-x="1000" >
<font-face font-family="theme-icons-v2" font-weight="400" font-stretch="normal" units-per-em="1000" ascent="850" descent="-150" />
<missing-glyph horiz-adv-x="1000" />
<glyph glyph-name="add" unicode="&#xe800;" d="M521 121h-42v208h-208v42h208v208h42v-208h208v-42h-208v-208z m417 229c0 242-196 438-438 438-242 0-437-196-437-438 0-242 195-438 437-438 242 0 438 196 438 438z m-42 0c0-219-177-396-396-396s-396 177-396 396 177 396 396 396 396-177 396-396z" horiz-adv-x="1000" />

<glyph glyph-name="align-left" unicode="&#xe801;" d="M229 121h375v-42h-375v42z m375 333h-375v-41h375v41z m-375-208h542v42h-542v-42z m0 375v-42h542v42h-542z" horiz-adv-x="1000" />

<glyph glyph-name="align-center" unicode="&#xe802;" d="M313 121h375v-42h-375v42z m-84 125h542v42h-542v-42z m0 375v-42h542v42h-542z m84-167v-41h375v41h-375z" horiz-adv-x="1000" />

<glyph glyph-name="apps-alt" unicode="&#xe803;" d="M188 538h125v125h-125v-125z m41 83h42v-42h-42v42z m209-83h125v125h-125v-125z m41 83h42v-42h-42v42z m209 42v-125h125v125h-125z m83-84h-42v42h42v-42z m-583-291h125v125h-125v-125z m41 83h42v-42h-42v42z m209-83h125v125h-125v-125z m41 83h42v-42h-42v42z m209-83h125v125h-125v-125z m41 83h42v-42h-42v42z m-541-333h125v125h-125v-125z m41 83h42v-42h-42v42z m209-83h125v125h-125v-125z m41 83h42v-42h-42v42z m209-83h125v125h-125v-125z m41 83h42v-42h-42v42z" horiz-adv-x="1000" />

<glyph glyph-name="apps" unicode="&#xe804;" d="M250 663c-35 0-62-28-62-63s27-62 62-62 63 27 63 62-28 63-63 63z m0-84c-12 0-21 9-21 21s9 21 21 21 21-8 21-21-8-21-21-21z m250 84c-35 0-62-28-62-63s27-62 62-62 63 27 63 62-28 63-63 63z m0-84c-12 0-21 9-21 21s9 21 21 21 21-8 21-21-8-21-21-21z m250-41c35 0 63 27 63 62s-28 63-63 63-62-28-62-63 27-62 62-62z m0 83c13 0 21-8 21-21s-8-21-21-21-21 9-21 21 9 21 21 21z m-500-208c-35 0-62-28-62-63s27-62 62-62 63 27 63 62-28 63-63 63z m0-84c-12 0-21 9-21 21s9 21 21 21 21-8 21-21-8-21-21-21z m250 84c-35 0-62-28-62-63s27-62 62-62 63 27 63 62-28 63-63 63z m0-84c-12 0-21 9-21 21s9 21 21 21 21-8 21-21-8-21-21-21z m250 84c-35 0-62-28-62-63s27-62 62-62 63 27 63 62-28 63-63 63z m0-84c-12 0-21 9-21 21s9 21 21 21 21-8 21-21-8-21-21-21z m-500-166c-35 0-62-28-62-63s27-62 62-62 63 27 63 62-28 63-63 63z m0-84c-12 0-21 9-21 21s9 21 21 21 21-8 21-21-8-21-21-21z m250 84c-35 0-62-28-62-63s27-62 62-62 63 27 63 62-28 63-63 63z m0-84c-12 0-21 9-21 21s9 21 21 21 21-8 21-21-8-21-21-21z m250 84c-35 0-62-28-62-63s27-62 62-62 63 27 63 62-28 63-63 63z m0-84c-12 0-21 9-21 21s9 21 21 21 21-8 21-21-8-21-21-21z" horiz-adv-x="1000" />

<glyph glyph-name="arrow-down-circle" unicode="&#xe805;" d="M625 317l29-29-154-155-154 155 29 29 104-104v12 333h42v-333-12l104 104z m313 33c0-242-196-438-438-438-242 0-437 196-437 438 0 242 195 438 437 438 242 0 438-196 438-438z m-42 0c0 219-177 396-396 396s-396-177-396-396 177-396 396-396 396 177 396 396z" horiz-adv-x="1000" />

<glyph glyph-name="align-right" unicode="&#xe806;" d="M396 121h375v-42h-375v42z m-167 125h542v42h-542v-42z m0 375v-42h542v42h-542z m167-208h375v41h-375v-41z" horiz-adv-x="1000" />

<glyph glyph-name="arrow-down" unicode="&#xe807;" d="M515-40l-15-14-15 14c0 0 0 0 0 0l-264 265 29 29 229-229v721h42v-721l229 229 29-29-264-265c0 0 0 0 0 0z" horiz-adv-x="1000" />

<glyph glyph-name="arrow-left-bottom" unicode="&#xe808;" d="M258 79h305v-41h-375v375h41v-305l6 7 557 556 29-29-556-557-7-6z" horiz-adv-x="1000" />

<glyph glyph-name="arrow-left-circle" unicode="&#xe809;" d="M375 371h333v-42h-333-12l104-104-29-29-140 139c0 0 0 0 0 0l-15 15 15 15c0 0 0 0 0 0l140 139 29-29-104-104h12z m563-21c0-242-196-438-438-438-242 0-437 196-437 438 0 242 195 438 437 438 242 0 438-196 438-438z m-42 0c0 219-177 396-396 396s-396-177-396-396 177-396 396-396 396 177 396 396z" horiz-adv-x="1000" />

<glyph glyph-name="arrow-left-top" unicode="&#xe80a;" d="M821 58l-29-29-557 556-6 7v-304h-41v375h375v-42h-305l7-6 556-557z" horiz-adv-x="1000" />

<glyph glyph-name="arrow-right-bottom" unicode="&#xe80b;" d="M813 413v-375h-375v41h304l-7 6-556 557 29 29 557-556 6-7v305h42z" horiz-adv-x="1000" />

<glyph glyph-name="arrow-left" unicode="&#xe80c;" d="M896 329h-721l229-229-29-29-265 264c0 0 0 0 0 0l-14 15 14 15c0 0 0 0 0 0l265 264 29-29-229-229h721v-42z" horiz-adv-x="1000" />

<glyph glyph-name="arrow-right-circle" unicode="&#xe80d;" d="M717 350l-15-15c0 0 0 0 0 0l-139-139-30 29 105 104h-13-333v42h333 13l-105 104 30 29 139-139c0 0 0 0 0 0l15-15z m221 0c0-242-196-438-438-438-242 0-437 196-437 438 0 242 195 438 437 438 242 0 438-196 438-438z m-42 0c0 219-177 396-396 396s-396-177-396-396 177-396 396-396 396 177 396 396z" horiz-adv-x="1000" />

<glyph glyph-name="arrow-right-top" unicode="&#xe80e;" d="M813 663v-375h-42v304l-6-7-557-556-29 29 556 557 7 6h-304v42h375z" horiz-adv-x="1000" />

<glyph glyph-name="arrow-up-circle" unicode="&#xe80f;" d="M515 552l139-139-29-30-104 105v-13-333h-42v333 13l-104-105-29 30 139 139c0 0 0 0 0 0l15 15 15-15c0 0 0 0 0 0z m423-202c0-242-196-438-438-438-242 0-437 196-437 438 0 242 195 438 437 438 242 0 438-196 438-438z m-42 0c0 219-177 396-396 396s-396-177-396-396 177-396 396-396 396 177 396 396z" horiz-adv-x="1000" />

<glyph glyph-name="arrow-right" unicode="&#xe810;" d="M904 350l-14-15c0 0 0 0 0 0l-265-264-29 29 229 229h-721v42h721l-229 229 29 29 265-264c0 0 0 0 0 0l14-15z" horiz-adv-x="1000" />

<glyph glyph-name="arrow-up" unicode="&#xe811;" d="M750 446l-229 229v-721h-42v721l-229-229-29 29 264 265c0 0 0 0 0 0l15 14 15-14c0 0 0 0 0 0l264-265-29-29z" horiz-adv-x="1000" />

<glyph glyph-name="back-left" unicode="&#xe812;" d="M938 225v-21h-42v21c0 196-150 354-333 354s-334-158-334-354v-75l104 104 30-29-155-154-154 154 29 29 105-104v75c0 219 168 396 375 396 206 0 375-177 375-396z" horiz-adv-x="1000" />

<glyph glyph-name="back-alt" unicode="&#xe813;" d="M127 350l686-413v826l-686-413z m644-337l-565 337 565 338v-675z" horiz-adv-x="1000" />

<glyph glyph-name="back-right" unicode="&#xe814;" d="M946 225l-154-154-154 154 29 29 104-104v75c0 196-150 354-333 354s-334-158-334-354v-21h-41v21c0 219 168 396 375 396 206 0 375-177 375-396v-75l104 104 29-29z" horiz-adv-x="1000" />

<glyph glyph-name="checkbox-intermediate" unicode="&#xe815;" d="M833 746h-666c-36 0-63-27-63-63v-666c0-36 27-63 63-63h666c36 0 63 27 63 63v666c0 36-27 63-63 63z m21-729c0-13-8-21-21-21h-666c-13 0-21 8-21 21v666c0 13 8 21 21 21h666c13 0 21-8 21-21v-666z m-541 354h375v-42h-375v42z" horiz-adv-x="1000" />

<glyph glyph-name="cancel" unicode="&#xe816;" d="M677 498l-148-148 148-148-29-29-148 148-148-148-29 29 148 148-148 148 29 29 148-148 148 148 29-29z m131-456c-83-86-195-130-308-130-112 0-225 42-308 128-171 170-171 450 0 618 168 171 448 171 616 0 171-168 171-448 0-616z m-29 587c-154 154-404 154-558 0-154-154-154-404 0-558 154-154 406-154 560 0 152 154 152 404-2 558z" horiz-adv-x="1000" />

<glyph glyph-name="checkbox" unicode="&#xe817;" d="M833 746h-666c-36 0-63-27-63-63v-666c0-36 27-63 63-63h666c36 0 63 27 63 63v666c0 36-27 63-63 63z m21-729c0-13-8-21-21-21h-666c-13 0-21 8-21 21v666c0 13 8 21 21 21h666c13 0 21-8 21-21v-666z m-131 502l29-29-335-336-169 169 29 29 140-139 306 306z" horiz-adv-x="1000" />

<glyph glyph-name="chevron-down" unicode="&#xe818;" d="M779 433l-279-279-279 279 29 30 250-250 250 250 29-30z" horiz-adv-x="1000" />

<glyph glyph-name="chevron-left" unicode="&#xe819;" d="M363 350l250-250-30-29-279 279 279 279 30-29-250-250z" horiz-adv-x="1000" />

<glyph glyph-name="chevron-right" unicode="&#xe81a;" d="M696 350l-279-279-29 29 250 250-250 250 29 29 279-279z" horiz-adv-x="1000" />

<glyph glyph-name="chevron-up" unicode="&#xe81b;" d="M779 267l-29-29-250 250-250-250-29 29 279 279 279-279z" horiz-adv-x="1000" />

<glyph glyph-name="circle" unicode="&#xe81c;" d="M500 704c-196 0-354-158-354-354s158-354 354-354 354 158 354 354-158 354-354 354z m0-666c-173 0-312 139-312 312 0 173 139 313 312 313 173 0 313-140 313-313 0-173-140-312-313-312z" horiz-adv-x="1000" />

<glyph glyph-name="direction-left" unicode="&#xe81d;" d="M813 315v-361h-42v361c0 220-213 223-223 223h-290l146-146-29-29-196 195 196 196 29-29-146-146h290c4 0 265-2 265-264z" horiz-adv-x="1000" />

<glyph glyph-name="direction-right" unicode="&#xe81e;" d="M821 558l-196-195-29 29 146 146h-290c-10 0-223-5-223-223v-361h-41v361c0 262 260 264 264 264h290l-146 146 29 29 196-196z" horiz-adv-x="1000" />

<glyph glyph-name="download" unicode="&#xe81f;" d="M500 113l-237 237 29 29 187-187v554h42v-554l187 187 30-29-238-237z m-354-117v-42h708v42h-708z" horiz-adv-x="1000" />

<glyph glyph-name="ellypsis-vertical" unicode="&#xe820;" d="M500 538c35 0 63 27 63 62s-28 63-63 63-62-28-62-63 27-62 62-62z m0 83c13 0 21-8 21-21s-8-21-21-21-21 9-21 21 9 21 21 21z m0-208c-35 0-62-28-62-63s27-62 62-62 63 27 63 62-28 63-63 63z m0-84c-12 0-21 9-21 21s9 21 21 21 21-8 21-21-8-21-21-21z m0-166c-35 0-62-28-62-63s27-62 62-62 63 27 63 62-28 63-63 63z m0-84c-12 0-21 9-21 21s9 21 21 21 21-8 21-21-8-21-21-21z" horiz-adv-x="1000" />

<glyph glyph-name="ellypsis" unicode="&#xe821;" d="M500 413c-35 0-62-28-62-63s27-62 62-62 63 27 63 62-28 63-63 63z m0-84c-12 0-21 9-21 21s9 21 21 21 21-8 21-21-8-21-21-21z m-250 84c-35 0-62-28-62-63s27-62 62-62 63 27 63 62-28 63-63 63z m0-84c-12 0-21 9-21 21s9 21 21 21 21-8 21-21-8-21-21-21z m500 84c-35 0-62-28-62-63s27-62 62-62 63 27 63 62-28 63-63 63z m0-84c-12 0-21 9-21 21s9 21 21 21 21-8 21-21-8-21-21-21z" horiz-adv-x="1000" />

<glyph glyph-name="hamburger" unicode="&#xe822;" d="M229 163h542v-42h-542v42z m0 166h542v42h-542v-42z m0 250v-41h542v41h-542z" horiz-adv-x="1000" />

<glyph glyph-name="happy-face" unicode="&#xe823;" d="M685 294l38-17-8-19c-36-81-125-137-215-137-92 0-179 56-215 137l-8 19 38 17 8-19c29-67 102-112 177-112 75 0 148 45 177 112l8 19z m-318 162c2-2 6-2 8-2 2 0 2 0 4 0 2 0 2 0 4 2 2 0 2 2 5 2 0 0 2 2 2 2 0 3 2 3 2 3 0 2 2 2 2 4 0 2 0 2 2 4 0 2 0 2 0 4 0 2 0 6-2 8-2 2-2 5-4 7-7 6-15 8-23 4-2-2-4-2-7-4-2-2-4-5-4-7 0-2-2-4-2-8 0-6 2-10 6-15 3-2 5-4 7-4z m250 0c2 0 4-2 8-2 2 0 2 0 4 0 2 0 2 0 4 2 2 0 2 2 5 2 0 0 2 2 4 2 2 3 4 5 4 7s0 6 0 8c0 6-2 10-6 15-7 6-15 8-23 4-2-2-4-2-7-4-4-5-6-9-6-15 0-6 2-10 6-15 3-2 5-4 7-4z m321-106c0-242-196-438-438-438-242 0-437 196-437 438 0 242 195 438 437 438 242 0 438-196 438-438z m-42 0c0 219-177 396-396 396s-396-177-396-396 177-396 396-396 396 177 396 396z" horiz-adv-x="1000" />

<glyph glyph-name="next-alt" unicode="&#xe824;" d="M638 350l145 146h-387c-115 0-208-94-208-208 0-115 93-209 208-209h417v-41h-417c-138 0-250 112-250 250 0 137 112 250 250 250h387l-145 145 29 30 175-175h12v-13l9-8-9-9v-12h-12l-175-175-29 29z" horiz-adv-x="1000" />

<glyph glyph-name="ok-circle" unicode="&#xe825;" d="M708 504l30-29-321-321-154 154 29 30 125-125 291 291z m230-154c0-242-196-438-438-438-242 0-437 196-437 438 0 242 195 438 437 438 242 0 438-196 438-438z m-42 0c0 219-177 396-396 396s-396-177-396-396 177-396 396-396 396 177 396 396z" horiz-adv-x="1000" />

<glyph glyph-name="ok" unicode="&#xe826;" d="M863 558l-488-487-237 237 29 30 208-209 458 459 30-30z" horiz-adv-x="1000" />

<glyph glyph-name="play" unicode="&#xe827;" d="M188 763v-823l685 410-685 413z m41-75l565-338-565-337v675z" horiz-adv-x="1000" />

<glyph glyph-name="plus" unicode="&#xe828;" d="M854 371v-42h-333v-333h-42v333h-333v42h333v333h42v-333h333z" horiz-adv-x="1000" />

<glyph glyph-name="previous-alt" unicode="&#xe829;" d="M854 288c0-138-112-250-250-250h-416v41h416c115 0 209 94 209 209 0 114-94 208-209 208h-387l146-146-30-29-175 175h-12v12l-8 9 8 8v13h12l175 175 30-30-146-145h387c138 0 250-113 250-250z" horiz-adv-x="1000" />

<glyph glyph-name="radio-button-selected" unicode="&#xe82a;" d="M500 621c-150 0-271-121-271-271 0-150 121-271 271-271 150 0 271 121 271 271 0 150-121 271-271 271z m0-500c-127 0-229 102-229 229s102 229 229 229 229-102 229-229-102-229-229-229z m0 333c-58 0-104-46-104-104s46-104 104-104 104 46 104 104-46 104-104 104z m0-166c-35 0-62 27-62 62s27 63 62 63 63-28 63-63-28-62-63-62z" horiz-adv-x="1000" />

<glyph glyph-name="radio-button" unicode="&#xe82b;" d="M500 621c-150 0-271-121-271-271 0-150 121-271 271-271 150 0 271 121 271 271 0 150-121 271-271 271z m0-500c-127 0-229 102-229 229s102 229 229 229 229-102 229-229-102-229-229-229z" horiz-adv-x="1000" />

<glyph glyph-name="redo" unicode="&#xe82c;" d="M896 454v-250h-250v42h179l-33 33-15 15c-98 98-227 146-354 133-115-12-217-75-279-171l-11-16-35 23 10 16c69 106 184 177 311 190 139 14 281-38 387-144l15-15 33-33v177h42z" horiz-adv-x="1000" />

<glyph glyph-name="rectangle" unicode="&#xe82d;" d="M104 746v-792h792v792h-792z m750-750h-708v708h708v-708z" horiz-adv-x="1000" />

<glyph glyph-name="refresh" unicode="&#xe82e;" d="M946 350l-154-154-154 154 29 29 104-104v75c0 173-140 313-313 313-173 0-312-140-312-313 0-173 139-312 312-312h21v-42h-21c-195 0-354 158-354 354s159 354 354 354 355-158 355-354v-75l104 104 29-29z" horiz-adv-x="1000" />

<glyph glyph-name="remove" unicode="&#xe82f;" d="M271 371h458v-42h-458v42z m667-21c0-242-196-438-438-438-242 0-437 196-437 438 0 242 195 438 437 438 242 0 438-196 438-438z m-42 0c0 219-177 396-396 396s-396-177-396-396 177-396 396-396 396 177 396 396z" horiz-adv-x="1000" />

<glyph glyph-name="stats" unicode="&#xe830;" d="M771 371v-42h-542v42h542z m-125 208h-417v-41h417v41z m-417-458h292v42h-292v-42z" horiz-adv-x="1000" />

<glyph glyph-name="return" unicode="&#xe831;" d="M813 538v-146c0-59-46-104-105-104h-450l105-105-30-29-154 154 154 155 30-30-105-104h450c36 0 63 27 63 63v146h42z" horiz-adv-x="1000" />

<glyph glyph-name="turn-left" unicode="&#xe832;" d="M854 42v-21h-41v21c0 239-200 412-478 412h-118l187-187-29-29-237 237 237 238 29-30-187-187h118c300 0 519-192 519-454z" horiz-adv-x="1000" />

<glyph glyph-name="video" unicode="&#xe833;" d="M354 594v-484l440 240-440 244z m42-71l310-173-310-169v342z m104 265c-242 0-437-196-437-438 0-242 195-438 437-438 242 0 438 196 438 438 0 242-196 438-438 438z m0-834c-219 0-396 177-396 396s177 396 396 396 396-177 396-396-177-396-396-396z" horiz-adv-x="1000" />

<glyph glyph-name="turn-right" unicode="&#xe834;" d="M863 475l-238-237-29 29 187 187h-131c-275 0-477-173-477-412v-21h-42v21c0 262 219 454 519 454h131l-187 187 29 30 238-238z" horiz-adv-x="1000" />

<glyph glyph-name="undo" unicode="&#xe835;" d="M904 260l-35-22-11 16c-62 96-164 159-279 171-127 13-256-35-354-133l-17-13-33-33h179v-42h-250v250h42v-179l33 33 15 15c106 106 248 158 387 144 127-13 242-84 311-190l12-17z" horiz-adv-x="1000" />

<glyph glyph-name="chevrons-down" unicode="&#xe836;" d="M500 321l-237 237 29 30 208-209 208 209 30-30-238-237z m0-192l-208 209-29-30 237-237 238 237-30 30-208-209z" horiz-adv-x="1000" />

<glyph glyph-name="chevrons-up" unicode="&#xe837;" d="M292 363l-29 29 237 237 238-237-30-29-208 208-208-208z m-29-221l29-29 208 208 208-208 30 29-238 237-237-237z" horiz-adv-x="1000" />

<glyph glyph-name="chevrons-left" unicode="&#xe838;" d="M279 350l209-208-30-29-237 237 237 238 30-30-209-208z m459 208l-30 30-237-238 237-237 30 29-209 208 209 208z" horiz-adv-x="1000" />

<glyph glyph-name="chevrons-right" unicode="&#xe839;" d="M779 350l-237-237-29 29 208 208-208 208 29 30 237-238z m-487 238l-29-30 208-208-208-208 29-29 237 237-237 238z" horiz-adv-x="1000" />

<glyph glyph-name="search" unicode="&#xe83a;" d="M619 260c50 57 79 130 79 211 0 175-142 317-319 317s-316-142-316-317 141-317 316-317c81 0 154 29 211 79l318-321 30 30-319 318z m-240-66c-152 0-277 125-277 277s125 277 277 277 277-125 277-277-123-277-277-277z" horiz-adv-x="1000" />

<glyph glyph-name="twitter" unicode="&#xf309;" d="M920 636q-36-54-94-98l0-24q0-130-60-250t-186-203-290-83q-160 0-290 84 14-2 46-2 132 0 234 80-62 2-110 38t-66 94q10-4 34-4 26 0 50 6-66 14-108 66t-42 120l0 2q36-20 84-24-84 58-84 158 0 48 26 94 154-188 390-196-6 18-6 42 0 78 55 133t135 55q82 0 136-58 60 12 120 44-20-66-82-104 56 8 108 30z" horiz-adv-x="920" />

<glyph glyph-name="facebook" unicode="&#xf30c;" d="M500 644l-142 0q-14 0-25-15t-11-37l0-102 178 0 0-148-178 0 0-442-170 0 0 442-152 0 0 148 152 0 0 86q0 94 59 159t147 65l142 0 0-156z" horiz-adv-x="500" />

<glyph glyph-name="linkedin" unicode="&#xf318;" d="M204 698q0-40-29-68t-75-28q-44 0-72 28t-28 68q0 42 28 69t74 27 73-27 29-69z m-198-790l0 618 192 0 0-618-192 0z m306 420q0 86-4 198l166 0 10-86 4 0q60 100 190 100 100 0 161-67t61-199l0-366-192 0 0 342q0 134-98 134-70 0-98-72-6-12-6-48l0-356-194 0 0 420z" horiz-adv-x="900" />
</font>
</defs>
</svg>
